Quick filter Tv shows only Movies only Games only Application only Music only E-books only


» » » Pitbull - Back In Time (Men In Black 3) OST 2012

looking for more ? search irfree.com .


Pitbull - Back In Time (Men In Black 3) OST 2012


10:15 am Comments: Catgory: Music » MViD

 

Format                                   : MPEG-4
Format profile                           : Base Media / Version 2
Codec ID                                 : mp42
File size                                : 123 MiB
Duration                                 : 3mn 32s
Overall bit rate mode                    : Variable
Overall bit rate                         : 4 848 Kbps
Movie name                               : Back In Time
Album                                    : OST.Men In Black 3
Performer                                : Pitbull
Genre                                    : Soundtrack
Recorded date                            : 2012
Encoded date                             : UTC 2012-04-18 21:47:46
Tagged date                              : UTC 2012-04-18 21:47:46
Copyright                                : Pitbull
Cover                                    : Yes
rtng                                     : 0
Xtra                                     : WM/Publisher

Video
ID                                       : 1
Format                                   : AVC
Format/Info                              : Advanced Video Codec
Format profile                           : High@L4.0
Format settings, CABAC                   : Yes
Format settings, ReFrames                : 1 frame
Codec ID                                 : avc1
Codec ID/Info                            : Advanced Video Coding
Duration                                 : 3mn 32s
Bit rate                                 : 4 694 Kbps
Maximum bit rate                         : 9 073 Kbps
Width                                    : 1 920 pixels
Height                                   : 1 080 pixels
Display aspect ratio                     : 16:9
Frame rate mode                          : Constant
Frame rate                               : 23.976 fps
Color space                              : YUV
Chroma subsampling                       : 4:2:0
Bit depth                                : 8 bits
Scan type                                : Progressive
Bits/(Pixel*Frame)                       : 0.094
Stream size                              : 119 MiB (97%)
Tagged date                              : UTC 2012-04-18 21:47:46

Audio
ID                                       : 2
Format                                   : AAC
Format/Info                              : Advanced Audio Codec
Format profile                           : LC
Codec ID                                 : 40
Duration                                 : 3mn 32s
Bit rate mode                            : Variable
Bit rate                                 : 150 Kbps
Maximum bit rate                         : 224 Kbps
Channel(s)                               : 2 channels
Channel positions                        : Front: L R
Sampling rate                            : 44.1 KHz
Compression mode                         : Lossy
Stream size                              : 3.80 MiB (3%)
Title                                    : IsoMedia File Produced by Google, 5-11-2011
Encoded date                             : UTC 2012-04-18 21:47:46
Tagged date                              : UTC 2012-04-18 21:47:46

 

 

DOWNLOAD

http://extabit.com/file/2dbkzj6wno4hn

 

 

 

 

 

 

 

 

 

 

 

 Fast File Downloader
Dear visitor, you are viewing Pitbull - Back In Time (Men In Black 3) OST 2012 as Guest.
We strongly recommend you to register and login to view hidden contents.

We tried to provide download links from best sources on internet .
our source are clean , safe and will check for any malicious .


Feel free to report dead links or a problem in Pitbull - Back In Time (Men In Black 3) OST 2012 files .Your are allow to post your (mirror , subtitles, samples, free download, quality, crack keygen or whatever-related post) comments here.

Pitbull - Back In Time (Men In Black 3) OST 2012

Free download Pitbull - Back In Time (Men In Black 3) OST 2012.